Ergebnis 1 bis 4 von 4

Thema: rpiotrtool schneidet nicht das HD-Format vom Sender 4plus

  1. #1
    Member
    Registriert seit
    May 2007
    Beiträge
    11

    rpiotrtool schneidet nicht das HD-Format vom Sender 4plus

    Ich benutze rpiotrtool zum Schneiden von HQ/HD-files mit bereits vorliegenden custlists.

    rpiotrtool verweigert leider das Schneiden von HD-Filmen vom Sender 4plus - hier ist offensichtlich irgendetwas(?) anders!
    => kann ich das 4plus Format irgendwie in das "normale" HD-Format umwandeln, sodass ich es wieder automatisiert schneiden kann?

  2. #2
    Administrator
    Registriert seit
    Oct 2006
    Ort
    Where the wild things are
    Beiträge
    15.648
    Threadtitel angepasst, da es dort keine Änderung gegeben hat.

    MfG
    MCMUPPET

  3. #3
    Member
    Registriert seit
    May 2007
    Beiträge
    11
    ...da es dort keine Änderung gegeben hat.
    Wirklich?

    Der_unglaubliche_Hulk_21.07.27_20-15_4plus_255_TVOON_DE.mpg.HD.avi
    => kann ganz normal mit rpiotrtool geschnitten werden

    Code:
    mediainfo:
    
    General
    Complete name                            : Der_unglaubliche_Hulk_21.07.27_20-15_4plus_255_TVOON_DE.mpg.HD.avi
    Format                                   : AVI
    Format/Info                              : Audio Video Interleave
    Format profile                           : OpenDML
    File size                                : 6.11 GiB
    Duration                                 : 4 h 30 min
    Overall bit rate                         : 3 229 kb/s
    Writing application                      : Lavf54.17.100
    
    Video
    ID                                       : 0
    Format                                   : AVC
    Format/Info                              : Advanced Video Codec
    Format profile                           : High@L4
    Format settings                          : CABAC / 4 Ref Frames
    Format settings, CABAC                   : Yes
    Format settings, ReFrames                : 4 frames
    Codec ID                                 : H264
    Duration                                 : 4 h 30 min
    Bit rate                                 : 3 027 kb/s
    Width                                    : 1 920 pixels
    Height                                   : 1 080 pixels
    Display aspect ratio                     : 16:9
    Frame rate                               : 25.000 FPS
    Standard                                 : PAL
    Color space                              : YUV
    Chroma subsampling                       : 4:2:0
    Bit depth                                : 8 bits
    Scan type                                : Progressive
    Bits/(Pixel*Frame)                       : 0.058
    Stream size                              : 5.73 GiB (94%)
    Writing library                          : x264 core 125 r2200 999b753
    Encoding settings                        : cabac=1 / ref=3 / deblock=1:-1:-1 / analyse=0x3:0x113 / me=hex / subme=7 / psy=1 / fade_compensate=0.10 / psy_rd=1.00:0.15 / mixed_ref=1 / me_range=16 / chroma_me=1 / trellis=1 / 8x8dct=1 / cqm=0 / deadzone=21,11 / fast_pskip=1 / chroma_qp_offset=-3 / threads=36 / lookahead_threads=6 / sliced_threads=0 / nr=0 / decimate=1 / interlaced=0 / bluray_compat=0 / constrained_intra=0 / bframes=3 / b_pyramid=2 / b_adapt=2 / b_bias=0 / direct=3 / weightb=1 / open_gop=0 / weightp=0 / keyint=250 / keyint_min=25 / scenecut=40 / intra_refresh=0 / rc_lookahead=60 / rc=crf / mbtree=1 / crf=23.0000 / qcomp=0.60 / qpmin=0 / qpmax=69 / qpstep=4 / ip_ratio=1.40 / aq=1:1.00
    Color range                              : Limited
    Color primaries                          : BT.709
    Transfer characteristics                 : BT.709
    Matrix coefficients                      : BT.709
    
    Audio
    ID                                       : 1
    Format                                   : MPEG Audio
    Format version                           : Version 1
    Format profile                           : Layer 3
    Format settings                          : Joint stereo / MS Stereo
    Codec ID                                 : 55
    Codec ID/Hint                            : MP3
    Duration                                 : 4 h 30 min
    Bit rate mode                            : Constant
    Bit rate                                 : 192 kb/s
    Channel(s)                               : 2 channels
    Sampling rate                            : 48.0 kHz
    Compression mode                         : Lossy
    Stream size                              : 372 MiB (6%)
    Alignment                                : Aligned on interleaves
    Interleave, duration                     : 24  ms (0.60 video frame)
    Speed_21.12.01_20-15_4plus_140_TVOON_DE.mpg.HD.avi
    => Fehler: Unbekannte Kodierung entdeckt (Codec Core = -1). Datei kann nicht geschnitten werden.

    Code:
    mediainfo:
    
    General
    Complete name                            : Speed_21.12.01_20-15_4plus_140_TVOON_DE.mpg.HD.avi
    Format                                   : AVI
    Format/Info                              : Audio Video Interleave
    Format profile                           : OpenDML
    File size                                : 2.33 GiB
    Duration                                 : 2 h 35 min
    Overall bit rate mode                    : Variable
    Overall bit rate                         : 2 145 kb/s
    Encoded by                               : www.onlinetvrecorder.com
    Writing application                      : Lavf58.42.101
    Comment                                  :  
    FileExtension_Invalid                    : avi
    
    Video
    ID                                       : 0
    Format                                   : AVC
    Format/Info                              : Advanced Video Codec
    Format profile                           : Main@L4
    Format settings                          : CABAC / 1 Ref Frames
    Format settings, CABAC                   : Yes
    Format settings, ReFrames                : 1 frame
    Codec ID                                 : H264
    Duration                                 : 2 h 35 min
    Bit rate mode                            : Variable
    Bit rate                                 : 1 941 kb/s
    Maximum bit rate                         : 6 000 kb/s
    Width                                    : 1 920 pixels
    Height                                   : 1 080 pixels
    Display aspect ratio                     : 16:9
    Frame rate                               : 25.000 FPS
    Color space                              : YUV
    Chroma subsampling                       : 4:2:0
    Bit depth                                : 8 bits
    Scan type                                : Progressive
    Bits/(Pixel*Frame)                       : 0.037
    Stream size                              : 2.11 GiB (90%)
    
    Audio
    ID                                       : 1
    Format                                   : MPEG Audio
    Format version                           : Version 1
    Format profile                           : Layer 3
    Format settings                          : Joint stereo / MS Stereo
    Codec ID                                 : 55
    Codec ID/Hint                            : MP3
    Duration                                 : 2 h 35 min
    Bit rate mode                            : Constant
    Bit rate                                 : 192 kb/s
    Channel(s)                               : 2 channels
    Sampling rate                            : 48.0 kHz
    Compression mode                         : Lossy
    Stream size                              : 214 MiB (9%)
    Alignment                                : Aligned on interleaves
    Interleave, duration                     : 24  ms (0.60 video frame)
    Interleave, preload duration             : 24  ms
    kein Problem beim HD-Format Schneiden bei allen anderen Sendern!
    Geändert von witty (06.12.2021 um 17:28 Uhr)

  4. #4
    Member
    Registriert seit
    May 2007
    Beiträge
    11
    leider tritt der gleiche Fehler bei 3plus, 4plus und 5plus auf :-(

Berechtigungen

  • Neue Themen erstellen: Nein
  • Themen beantworten: Nein
  • Anhänge hochladen: Nein
  • Beiträge bearbeiten: Nein
  •