Seite 2 von 2 ErsteErste 12
Ergebnis 11 bis 17 von 17

Thema: Mache Filme auf DVDspieler nicht abpielbar?

  1. #11
    Member
    Registriert seit
    Sep 2008
    Ort
    South Germany
    Beiträge
    29

    AW: Mache Filme auf DVDspieler nicht abpielbar?

    Hmm... rechtliche Probleme... nagut. Die Filme kamen ja ganz normal im TV und hier sind alles OTR user....

    Egal. Ich hatte mir erhofft, dass ein Fachmann an der Datei etwas erkennt. Die Originaldateien habe ich nicht mehr, die lösche ich nach dem Schneider wieder.
    Beide habe ich als AVI heruntergeladen - soviel ist sicher.

  2. #12
    Member
    Registriert seit
    Apr 2007
    Beiträge
    1.771

    AW: Mache Filme auf DVDspieler nicht abpielbar?

    Geht:
    Code:
    General
    Complete name                            : C:UsersArtemisDownloadsCaptain_America_geht.avi - Kopie.part.avi
    Format                                   : AVI
    Format/Info                              : Audio Video Interleave
    File size                                : 24.3 MiB
    Duration                                 : 1h 51mn
    Overall bit rate                         : 30.4 Kbps
    Writing library                          : VirtualDub build 35491/release
    
    Video
    ID                                       : 0
    Format                                   : MPEG-4 Visual
    Format profile                           : Simple@L1
    Format settings, BVOP                    : No
    Format settings, QPel                    : No
    Format settings, GMC                     : No warppoints
    Format settings, Matrix                  : Default (H.263)
    Codec ID                                 : DX50
    Codec ID/Hint                            : DivX 5
    Duration                                 : 1h 51mn
    Width                                    : 640 pixels
    Height                                   : 360 pixels
    Display aspect ratio                     : 16:9
    Frame rate                               : 25.000 fps
    Color space                              : YUV
    Chroma subsampling                       : 4:2:0
    Bit depth                                : 8 bits
    Scan type                                : Progressive
    Compression mode                         : Lossy
    Writing library                          : Lavc53.35.0
    
    Audio
    ID                                       : 1
    Format                                   : MPEG Audio
    Format version                           : Version 1
    Format profile                           : Layer 3
    Mode                                     : Joint stereo
    Mode extension                           : MS Stereo
    Codec ID                                 : 55
    Codec ID/Hint                            : MP3
    Duration                                 : 1h 51mn
    Bit rate mode                            : Constant
    Bit rate                                 : 128 Kbps
    Channel(s)                               : 2 channels
    Sampling rate                            : 44.1 KHz
    Compression mode                         : Lossy
    Stream size                              : 102 MiB
    Alignment                                : Aligned on interleaves
    Geht net:
    Code:
    General
    Complete name                            : C:UsersArtemisDownloadsCaptain_America_geht_nicht.avi - Kopie.part.avi
    Format                                   : AVI
    Format/Info                              : Audio Video Interleave
    File size                                : 5.34 MiB
    Duration                                 : 1h 48mn
    Overall bit rate                         : 6 857 bps
    Writing library                          : VirtualDub build 28346/release
    
    Video
    ID                                       : 0
    Format                                   : MPEG-4 Visual
    Format profile                           : Simple@L1
    Format settings, BVOP                    : No
    Format settings, QPel                    : No
    Format settings, GMC                     : No warppoints
    Format settings, Matrix                  : Default (H.263)
    Codec ID                                 : DX50
    Codec ID/Hint                            : DivX 5
    Duration                                 : 1h 48mn
    Width                                    : 640 pixels
    Height                                   : 360 pixels
    Display aspect ratio                     : 16:9
    Frame rate                               : 25.000 fps
    Color space                              : YUV
    Chroma subsampling                       : 4:2:0
    Bit depth                                : 8 bits
    Scan type                                : Progressive
    Compression mode                         : Lossy
    Writing library                          : Lavc54.59.100
    
    Audio
    ID                                       : 1
    Format                                   : MPEG Audio
    Format version                           : Version 1
    Format profile                           : Layer 3
    Mode                                     : Joint stereo
    Mode extension                           : MS Stereo
    Codec ID                                 : 55
    Codec ID/Hint                            : MP3
    Duration                                 : 1h 48mn
    Bit rate mode                            : Constant
    Bit rate                                 : 128 Kbps
    Channel(s)                               : 2 channels
    Sampling rate                            : 44.1 KHz
    Compression mode                         : Lossy
    Stream size                              : 99.7 MiB
    Alignment                                : Split accross interleaves
    Writing library                          : LAME3.99.5
    DIFF:
    +Writing library : VirtualDub build 35491/release
    +Writing library : Lavc53.35.0
    +Alignment : Aligned on interleaves

    -Writing library : VirtualDub build 28346/release
    -Writing library : Lavc54.59.100
    -Alignment : Split accross interleaves
    -Writing library : LAME3.99.5

    mit was schneidest du denn? du hast da anscheinend mehreres verändert, installiere bitte alles mit den empfohlenen Einstellungen. Abweichungen in den Versionen können schon problematisch sein, wenn das Abspielgerät ein wenig zickig ist.

    http://cutana.sourceforge.net/anleitung
    divx und virtualdubmod kannst du ignorieren, xvid solltest du nutzen.

  3. #13
    Member
    Registriert seit
    Feb 2010
    Beiträge
    378

    AW: Mache Filme auf DVDspieler nicht abpielbar?

    @Speckwuerfel

    Du solltest die ungeschnittenen Dateien miteinander vergleichen, um weitere Fehlerquellen beim Schnitt auszuschließen.

  4. #14
    Member
    Registriert seit
    Jul 2013
    Beiträge
    33

    AW: Mache Filme auf DVDspieler nicht abpielbar?

    Es sind auch zwei verschiedene Aufzeichnungen. Geht: SF2, geht nicht: Pro7Maxx.

  5. #15
    Member
    Registriert seit
    Sep 2008
    Ort
    South Germany
    Beiträge
    29

    AW: Mache Filme auf DVDspieler nicht abpielbar?

    Vielen Dank einmal für die detaillierte Analyse.

    Zum Schneiden benutze ich den VirtualDub.
    Bei der Installation verändere ich garnichts, die Unterschiede müssten dann schon von den Installationsfiles her kommen.
    Läuft xvid unter Linux?

  6. #16

    Registriert seit
    Jan 2009
    Beiträge
    1.728

    AW: Mache Filme auf DVDspieler nicht abpielbar?

    Zitat Zitat von Speckwuerfel Beitrag anzeigen
    Läuft xvid unter Linux?
    Unter Linux schneidet man die divx mit avidemux 2.5.
    Entweder direkt mit avidemux2.5 oder über ne GUI, die avidemux2.5 dann nur aufruft. (-> http://www.otrforum.com/showthread.p...ltung-Betatest)

  7. #17

    Registriert seit
    Jun 2014
    Beiträge
    104

    AW: Mache Filme auf DVDspieler nicht abpielbar?

    Hallöchen,

    ohne Umpacken läuft hier garnix - das bin ich mittlerweile gewohnt, es gehört zur Routine H264 (für HD und HQ) gehört z.B. auch nicht in einen AVI-Container, mein Sony-Mediaplayer quittiert das mit einer Fehlermeldung.

    Gruß, Nobby

Seite 2 von 2 ErsteErste 12

Ähnliche Themen

  1. Videostream MelodieTV nicht aufgezeichnet - was mache ich falsch ???
    Von Tatanael im Forum OnlineStreamRecorder.com (OSR)
    Antworten: 3
    Letzter Beitrag: 18.11.2014, 14:29
  2. Genre Filme zeigt nicht immer alle Filme an
    Von clel im Forum Wishlist
    Antworten: 1
    Letzter Beitrag: 09.07.2014, 10:24
  3. bekomme Filme nicht auf DVD gebrannt
    Von Bernie47 im Forum DVD brennen, DVD-Player
    Antworten: 11
    Letzter Beitrag: 12.04.2007, 10:54
  4. Was mache ich, wenn Decoden nicht geklappt hat?
    Von Menno im Forum Decodierung der Aufnahme
    Antworten: 0
    Letzter Beitrag: 04.01.2006, 22:22
  5. wmv nicht abspielbar - was mache ich falsch?
    Von BloodyMary im Forum Abspielen der Sendung unter Windows
    Antworten: 5
    Letzter Beitrag: 14.12.2005, 15:11

Berechtigungen

  • Neue Themen erstellen: Nein
  • Themen beantworten: Nein
  • Anhänge hochladen: Nein
  • Beiträge bearbeiten: Nein
  •